<?xml version="1.0" encoding="UTF-8" standalone="no"?>
<svg
   version="1.2"
   width="156mm"
   height="72mm"
   viewBox="0 0 15600 7200"
   preserveAspectRatio="xMidYMid"
   fill-rule="evenodd"
   stroke-width="28.222"
   stroke-linejoin="round"
   xml:space="preserve"
   id="svg1902"
   sodipodi:docname="MTNE-CIEL.orig.svg"
   xmlns:inkscape="http://www.inkscape.org/namespaces/inkscape"
   xmlns:sodipodi="http://sodipodi.sourceforge.net/DTD/sodipodi-0.dtd"
   xmlns="http://www.w3.org/2000/svg"
   xmlns:svg="http://www.w3.org/2000/svg"><sodipodi:namedview
   id="namedview1904"
   pagecolor="#ffffff"
   bordercolor="#000000"
   borderopacity="0.25"
   inkscape:showpageshadow="2"
   inkscape:pageopacity="0.0"
   inkscape:pagecheckerboard="0"
   inkscape:deskcolor="#d1d1d1"
   inkscape:document-units="mm"
   showgrid="false" />
 <defs
   class="ClipPathGroup"
   id="defs1600"><clipPath
     id="presentation_clip_path"
     clipPathUnits="userSpaceOnUse">
   <rect
   x="0"
   y="0"
   width="15600"
   height="7200"
   id="rect1594" />
  </clipPath></defs>
 <defs
   id="defs1681"><font
     id="EmbeddedFont_1"
     horiz-adv-x="2048"
     horiz-origin-x="0"
     horiz-origin-y="0"
     vert-origin-x="512"
     vert-origin-y="768"
     vert-adv-y="1024">
   <font-face
   font-family="DINOT-Regular embedded"
   units-per-em="2048"
   font-weight="normal"
   font-style="normal"
   ascent="1561"
   descent="476"
   id="font-face1602" />
   <missing-glyph
   horiz-adv-x="2048"
   d="M 0,0 L 2047,0 2047,2047 0,2047 0,0 Z"
   id="missing-glyph1604" />
   <glyph
   unicode="é"
   horiz-adv-x="848"
   d="M 956,465 L 956,532 C 956,682 920,801 846,889 772,975 672,1020 543,1020 414,1020 313,973 240,883 166,793 129,666 129,504 129,330 168,201 246,115 324,29 430,-12 569,-12 651,-12 719,0 774,25 827,49 883,88 938,143 L 838,231 C 797,190 756,160 717,143 678,125 631,117 573,117 477,117 403,145 352,207 301,268 276,354 276,465 L 956,465 Z M 809,575 L 276,575 C 281,645 291,702 307,743 326,788 356,825 399,854 440,881 489,895 543,895 596,895 643,881 686,854 727,825 758,788 778,743 795,702 805,645 809,575 Z M 805,1530 L 629,1530 449,1217 584,1217 805,1530 Z"
   id="glyph1606" />
   <glyph
   unicode="É"
   horiz-adv-x="927"
   d="M 1116,0 L 1116,139 367,139 367,666 1006,666 1006,805 367,805 367,1319 1116,1319 1116,1458 211,1458 211,0 1116,0 Z M 897,1913 L 721,1913 541,1599 676,1599 897,1913 Z"
   id="glyph1608" />
   <glyph
   unicode="y"
   horiz-adv-x="901"
   d="M 893,1008 L 733,1008 459,199 182,1008 23,1008 385,20 313,-176 C 297,-225 276,-258 254,-274 231,-293 197,-301 147,-301 L 102,-301 102,-432 166,-432 C 248,-432 313,-410 363,-363 391,-338 414,-297 434,-244 L 893,1008 Z"
   id="glyph1610" />
   <glyph
   unicode="x"
   horiz-adv-x="874"
   d="M 911,0 L 569,514 897,1008 719,1008 492,635 260,1008 82,1008 410,514 68,0 246,0 492,391 733,0 911,0 Z"
   id="glyph1612" />
   <glyph
   unicode="u"
   horiz-adv-x="821"
   d="M 967,0 L 967,1008 819,1008 819,387 C 819,301 797,233 752,188 707,141 645,119 567,119 489,119 428,141 385,186 342,231 322,299 322,387 L 322,1008 174,1008 174,365 C 174,242 207,147 276,82 338,18 426,-12 537,-12 653,-12 748,29 821,113 L 821,0 967,0 Z"
   id="glyph1614" />
   <glyph
   unicode="t"
   horiz-adv-x="504"
   d="M 571,0 L 571,127 494,127 C 401,127 356,176 356,274 L 356,889 571,889 571,1001 356,1001 356,1317 209,1317 209,1001 82,1001 82,889 209,889 209,270 C 209,190 229,125 274,76 319,25 383,0 467,0 L 571,0 Z"
   id="glyph1616" />
   <glyph
   unicode="s"
   horiz-adv-x="848"
   d="M 911,295 C 911,383 885,449 834,492 782,532 709,559 614,567 L 453,582 C 334,590 276,639 276,729 276,780 295,821 334,850 373,879 428,895 502,895 610,895 700,868 770,815 L 866,911 C 776,983 655,1020 504,1020 393,1020 305,993 236,940 166,887 133,815 133,725 133,561 233,471 434,455 L 600,440 C 711,430 768,381 768,293 768,233 743,188 696,160 649,129 584,115 500,115 365,115 260,154 186,231 L 88,133 C 188,35 326,-12 502,-12 625,-12 725,14 799,70 872,123 911,199 911,295 Z"
   id="glyph1618" />
   <glyph
   unicode="r"
   horiz-adv-x="715"
   d="M 856,926 C 793,987 713,1020 614,1020 555,1020 500,1008 449,983 397,958 358,926 332,885 L 332,1008 184,1008 184,0 332,0 332,619 C 332,696 352,760 397,811 442,862 500,889 573,889 610,889 643,883 668,872 692,860 719,842 748,815 L 856,926 Z"
   id="glyph1620" />
   <glyph
   unicode="q"
   horiz-adv-x="848"
   d="M 932,-451 L 932,1008 786,1008 786,889 C 719,975 623,1020 500,1020 393,1020 311,989 254,932 172,850 131,707 131,504 131,299 172,158 254,76 311,16 393,-12 500,-12 621,-12 715,31 784,119 L 784,-451 932,-451 Z M 784,504 C 784,446 780,399 774,358 768,317 758,276 741,238 725,199 698,170 664,150 627,129 584,119 532,119 479,119 436,129 401,150 365,170 338,199 322,238 305,276 293,317 287,358 281,399 279,446 279,504 279,559 281,608 287,649 293,690 305,729 322,768 338,807 365,838 401,858 436,879 479,889 532,889 584,889 627,879 664,858 698,838 725,807 741,768 758,729 768,690 774,649 780,608 784,559 784,504 Z"
   id="glyph1622" />
   <glyph
   unicode="o"
   horiz-adv-x="848"
   d="M 954,504 C 954,688 913,821 831,905 754,981 657,1020 543,1020 426,1020 330,981 254,905 172,821 131,688 131,504 131,319 172,184 254,102 330,25 426,-12 543,-12 657,-12 754,25 831,102 913,184 954,319 954,504 Z M 807,504 C 807,348 780,246 727,193 678,143 616,119 543,119 469,119 410,143 360,193 305,246 279,350 279,504 279,655 305,760 360,815 410,864 469,889 543,889 616,889 678,864 727,815 780,762 807,657 807,504 Z"
   id="glyph1624" />
   <glyph
   unicode="n"
   horiz-adv-x="821"
   d="M 977,0 L 977,645 C 977,764 942,856 872,926 809,987 723,1020 614,1020 496,1020 401,979 332,897 L 332,1008 184,1008 184,0 332,0 332,621 C 332,707 352,772 397,819 442,864 504,889 582,889 659,889 719,864 764,819 807,774 829,707 829,621 L 829,0 977,0 Z"
   id="glyph1626" />
   <glyph
   unicode="m"
   horiz-adv-x="1482"
   d="M 1626,0 L 1626,645 C 1626,762 1589,856 1518,926 1452,987 1364,1020 1257,1020 1114,1020 1004,963 926,852 862,963 760,1020 616,1020 498,1020 401,979 332,897 L 332,1008 184,1008 184,0 332,0 332,621 C 332,707 354,772 399,819 444,864 506,889 584,889 662,889 721,864 766,819 809,774 831,707 831,621 L 831,0 979,0 979,637 C 979,715 1001,776 1049,821 1094,866 1155,889 1231,889 1309,889 1368,864 1413,819 1456,774 1479,707 1479,621 L 1479,0 1626,0 Z"
   id="glyph1628" />
   <glyph
   unicode="l"
   horiz-adv-x="398"
   d="M 543,0 L 543,127 463,127 C 414,127 379,137 358,162 338,186 328,223 328,274 L 328,1458 180,1458 180,268 C 180,186 201,123 244,74 287,25 350,0 436,0 L 543,0 Z"
   id="glyph1630" />
   <glyph
   unicode="i"
   horiz-adv-x="186"
   d="M 332,0 L 332,1008 184,1008 184,0 332,0 Z M 342,1294 L 342,1460 176,1460 176,1294 342,1294 Z"
   id="glyph1632" />
   <glyph
   unicode="h"
   horiz-adv-x="821"
   d="M 977,0 L 977,647 C 977,762 944,852 881,920 815,985 727,1020 614,1020 498,1020 403,979 332,897 L 332,1458 184,1458 184,0 332,0 332,623 C 332,709 354,774 399,819 444,864 506,889 584,889 662,889 721,864 764,819 807,774 829,709 829,623 L 829,0 977,0 Z"
   id="glyph1634" />
   <glyph
   unicode="g"
   horiz-adv-x="821"
   d="M 928,-31 L 928,1008 782,1008 782,889 C 715,975 621,1020 500,1020 393,1020 311,989 254,932 172,850 131,709 131,512 131,313 172,174 254,92 313,31 395,2 498,2 616,2 711,45 780,133 L 780,-25 C 780,-117 756,-190 711,-248 666,-305 596,-334 504,-334 449,-334 406,-328 373,-311 340,-297 303,-270 262,-233 L 166,-328 C 219,-377 272,-412 322,-432 371,-453 434,-463 508,-463 637,-463 739,-424 815,-342 889,-262 928,-158 928,-31 Z M 780,512 C 780,459 776,412 770,373 764,332 754,293 737,254 721,215 694,186 659,166 625,145 582,135 530,135 477,135 434,145 399,166 363,186 338,215 322,254 305,293 293,332 287,373 281,412 279,459 279,512 279,565 281,610 287,651 293,690 305,729 322,768 338,807 363,838 399,858 434,879 477,889 530,889 582,889 625,879 659,858 694,838 721,807 737,768 754,729 764,690 770,651 776,610 780,565 780,512 Z"
   id="glyph1636" />
   <glyph
   unicode="f"
   horiz-adv-x="504"
   d="M 580,889 L 580,1001 365,1001 365,1188 C 365,1286 410,1335 500,1335 L 580,1335 580,1462 473,1462 C 391,1462 328,1436 283,1387 238,1335 217,1270 217,1192 L 217,1001 88,1001 88,889 217,889 217,0 365,0 365,889 580,889 Z"
   id="glyph1638" />
   <glyph
   unicode="e"
   horiz-adv-x="848"
   d="M 956,465 L 956,532 C 956,682 920,801 846,889 772,975 672,1020 543,1020 414,1020 313,973 240,883 166,793 129,666 129,504 129,330 168,201 246,115 324,29 430,-12 569,-12 651,-12 719,0 774,25 827,49 883,88 938,143 L 838,231 C 797,190 756,160 717,143 678,125 631,117 573,117 477,117 403,145 352,207 301,268 276,354 276,465 L 956,465 Z M 809,575 L 276,575 C 281,645 291,702 307,743 326,788 356,825 399,854 440,881 489,895 543,895 596,895 643,881 686,854 727,825 758,788 778,743 795,702 805,645 809,575 Z"
   id="glyph1640" />
   <glyph
   unicode="d"
   horiz-adv-x="848"
   d="M 932,0 L 932,1458 784,1458 784,891 C 717,977 623,1020 500,1020 393,1020 311,989 254,932 172,850 131,707 131,504 131,299 172,158 254,76 311,16 393,-12 500,-12 623,-12 717,31 786,121 L 786,0 932,0 Z M 784,504 C 784,446 780,399 774,358 768,317 758,276 741,238 725,199 698,170 664,150 627,129 584,119 532,119 479,119 436,129 401,150 365,170 338,199 322,238 305,276 293,317 287,358 281,399 279,446 279,504 279,559 281,608 287,649 293,690 305,729 322,768 338,807 365,838 401,858 436,879 479,889 532,889 584,889 627,879 664,858 698,838 725,807 741,768 758,729 768,690 774,649 780,608 784,559 784,504 Z"
   id="glyph1642" />
   <glyph
   unicode="c"
   horiz-adv-x="821"
   d="M 907,137 L 807,233 C 768,190 731,160 698,143 664,127 623,119 575,119 473,119 395,156 342,233 297,295 276,385 276,504 276,623 297,713 342,774 395,850 473,889 575,889 623,889 664,881 698,864 731,848 768,817 807,776 L 907,870 C 854,926 805,965 756,987 707,1008 645,1020 575,1020 442,1020 334,975 252,887 170,797 129,670 129,504 129,336 170,209 252,121 334,31 442,-12 575,-12 645,-12 707,-2 756,20 805,41 854,80 907,137 Z"
   id="glyph1644" />
   <glyph
   unicode="b"
   horiz-adv-x="847"
   d="M 985,504 C 985,707 944,850 862,932 803,989 721,1020 616,1020 494,1020 397,977 332,891 L 332,1458 184,1458 184,0 332,0 332,121 C 399,31 494,-12 616,-12 721,-12 803,16 862,76 944,158 985,299 985,504 Z M 838,504 C 838,446 834,399 827,358 821,317 811,276 795,238 778,199 752,170 717,150 680,129 637,119 586,119 532,119 489,129 455,150 418,170 391,199 375,238 358,276 346,317 340,358 334,399 332,446 332,504 332,559 334,608 340,649 346,690 358,729 375,768 391,807 418,838 455,858 489,879 532,889 586,889 637,889 680,879 717,858 752,838 778,807 795,768 811,729 821,690 827,649 834,608 838,559 838,504 Z"
   id="glyph1646" />
   <glyph
   unicode="a"
   horiz-adv-x="822"
   d="M 903,0 L 903,684 C 903,907 768,1020 500,1020 414,1020 344,1008 291,987 236,965 186,926 143,870 L 244,778 C 272,819 307,850 344,866 381,883 432,893 498,893 588,893 653,875 694,838 735,801 756,745 756,672 L 756,575 453,575 C 342,575 256,549 195,498 133,444 104,375 104,285 104,199 129,129 180,80 240,18 334,-12 465,-12 532,-12 588,-6 631,10 672,27 715,55 756,96 L 756,0 903,0 Z M 756,356 C 756,272 737,215 705,182 657,137 582,115 479,115 324,115 248,172 248,287 248,406 322,465 473,465 L 756,465 756,356 Z"
   id="glyph1648" />
   <glyph
   unicode="T"
   horiz-adv-x="1006"
   d="M 1061,1319 L 1061,1458 61,1458 61,1319 483,1319 483,0 639,0 639,1319 1061,1319 Z"
   id="glyph1650" />
   <glyph
   unicode="R"
   horiz-adv-x="1060"
   d="M 1231,0 L 885,662 C 981,682 1059,725 1116,795 1174,862 1202,948 1202,1053 1202,1176 1161,1274 1081,1348 1001,1421 897,1458 770,1458 L 211,1458 211,0 367,0 367,647 717,647 1049,0 1231,0 Z M 1047,1051 C 1047,965 1020,897 967,852 913,807 844,784 756,784 L 367,784 367,1319 756,1319 C 842,1319 913,1294 967,1249 1020,1202 1047,1137 1047,1051 Z"
   id="glyph1652" />
   <glyph
   unicode="P"
   horiz-adv-x="1033"
   d="M 1204,1030 C 1204,1159 1161,1264 1079,1341 995,1419 887,1458 754,1458 L 211,1458 211,0 367,0 367,600 754,600 C 887,600 995,639 1079,717 1161,795 1204,899 1204,1030 Z M 1049,1030 C 1049,936 1020,862 965,813 907,764 834,739 739,739 L 367,739 367,1319 739,1319 C 834,1319 907,1294 965,1245 1020,1196 1049,1124 1049,1030 Z"
   id="glyph1654" />
   <glyph
   unicode="M"
   horiz-adv-x="1271"
   d="M 1460,0 L 1460,1458 1305,1458 842,424 367,1458 211,1458 211,0 367,0 367,1108 772,229 905,229 1305,1108 1305,0 1460,0 Z"
   id="glyph1656" />
   <glyph
   unicode="L"
   horiz-adv-x="927"
   d="M 1112,0 L 1112,139 367,139 367,1458 211,1458 211,0 1112,0 Z"
   id="glyph1658" />
   <glyph
   unicode="I"
   horiz-adv-x="186"
   d="M 367,0 L 367,1458 211,1458 211,0 367,0 Z"
   id="glyph1660" />
   <glyph
   unicode="G"
   horiz-adv-x="1060"
   d="M 1180,532 L 1180,764 666,764 666,627 1024,627 1024,516 C 1024,406 995,317 942,252 872,168 780,127 666,127 563,127 479,160 414,229 369,274 342,328 330,393 317,457 311,569 311,729 311,889 317,999 330,1063 342,1126 369,1182 414,1227 479,1296 563,1331 666,1331 756,1331 831,1305 895,1251 956,1198 999,1126 1020,1034 L 1176,1034 C 1153,1165 1096,1270 1006,1350 915,1430 801,1470 666,1470 518,1470 393,1419 293,1319 229,1255 190,1186 176,1110 162,1034 156,907 156,729 156,549 162,422 176,346 190,270 229,201 293,139 393,37 518,-12 666,-12 821,-12 950,43 1055,156 1137,244 1180,369 1180,532 Z"
   id="glyph1662" />
   <glyph
   unicode="F"
   horiz-adv-x="927"
   d="M 1116,1319 L 1116,1458 211,1458 211,0 367,0 367,643 1006,643 1006,782 367,782 367,1319 1116,1319 Z"
   id="glyph1664" />
   <glyph
   unicode="E"
   horiz-adv-x="927"
   d="M 1116,0 L 1116,139 367,139 367,666 1006,666 1006,805 367,805 367,1319 1116,1319 1116,1458 211,1458 211,0 1116,0 Z"
   id="glyph1666" />
   <glyph
   unicode="C"
   horiz-adv-x="1060"
   d="M 1171,422 L 1016,422 C 995,332 954,260 893,207 831,154 756,127 666,127 563,127 479,160 414,229 369,274 342,328 330,393 317,457 311,569 311,729 311,889 317,999 330,1065 342,1128 369,1184 414,1229 479,1296 563,1331 666,1331 756,1331 829,1305 891,1251 952,1198 991,1126 1012,1036 L 1171,1036 C 1147,1171 1090,1278 999,1356 909,1432 797,1470 666,1470 518,1470 393,1419 293,1319 229,1255 190,1186 176,1110 162,1034 156,907 156,729 156,549 162,422 176,346 190,270 229,201 293,139 393,37 518,-12 666,-12 797,-12 907,25 999,102 1090,180 1147,287 1171,422 Z"
   id="glyph1668" />
   <glyph
   unicode="B"
   horiz-adv-x="1033"
   d="M 1212,403 C 1212,487 1190,559 1147,621 1104,680 1047,723 975,750 1036,772 1087,813 1128,870 1169,928 1190,993 1190,1069 1190,1188 1149,1284 1071,1354 991,1423 887,1458 760,1458 L 211,1458 211,0 778,0 C 909,0 1016,35 1094,104 1171,174 1212,272 1212,403 Z M 1057,408 C 1057,326 1030,260 977,211 924,162 854,139 764,139 L 367,139 367,674 764,674 C 854,674 924,649 977,602 1030,553 1057,489 1057,408 Z M 1034,1067 C 1034,983 1008,920 954,877 901,834 831,813 748,813 L 367,813 367,1319 748,1319 C 834,1319 901,1296 954,1255 1008,1212 1034,1149 1034,1067 Z"
   id="glyph1670" />
   <glyph
   unicode="2"
   horiz-adv-x="822"
   d="M 944,0 L 944,131 317,131 827,782 C 868,836 899,883 918,928 934,971 944,1020 944,1077 944,1196 907,1290 834,1362 760,1434 662,1470 543,1470 422,1470 326,1434 252,1360 178,1286 141,1190 141,1075 L 289,1075 C 289,1163 311,1229 360,1274 408,1317 469,1339 543,1339 621,1339 684,1315 729,1268 774,1219 797,1155 797,1077 797,1004 768,932 715,862 L 139,131 139,0 944,0 Z"
   id="glyph1672" />
   <glyph
   unicode="/"
   horiz-adv-x="742"
   d="M 729,1610 L 584,1610 0,-152 145,-152 729,1610 Z"
   id="glyph1674" />
   <glyph
   unicode=","
   horiz-adv-x="212"
   d="M 360,-133 L 360,180 180,180 180,-295 360,-133 Z"
   id="glyph1676" />
   <glyph
   unicode=" "
   horiz-adv-x="503"
   id="glyph1678" />
  </font></defs>
 <defs
   id="defs1702"><font
     id="EmbeddedFont_2"
     horiz-adv-x="2048"
     horiz-origin-x="0"
     horiz-origin-y="0"
     vert-origin-x="512"
     vert-origin-y="768"
     vert-adv-y="1024">
   <font-face
   font-family="DINOT-Regular embedded"
   units-per-em="2048"
   font-weight="bold"
   font-style="normal"
   ascent="1561"
   descent="476"
   id="font-face1683" />
   <missing-glyph
   horiz-adv-x="2048"
   d="M 0,0 L 2047,0 2047,2047 0,2047 0,0 Z"
   id="missing-glyph1685" />
   <glyph
   unicode="É"
   horiz-adv-x="1033"
   d="M 1201,0 L 1201,225 452,225 452,666 1091,666 1091,890 452,890 452,1319 1201,1319 1201,1543 211,1543 211,0 1201,0 Z M 1022,1998 L 739,1998 510,1599 741,1599 1022,1998 Z"
   id="glyph1687" />
   <glyph
   unicode="T"
   horiz-adv-x="1112"
   d="M 1146,1319 L 1146,1543 61,1543 61,1319 483,1319 483,0 724,0 724,1319 1146,1319 Z"
   id="glyph1689" />
   <glyph
   unicode="N"
   horiz-adv-x="1192"
   d="M 1374,0 L 1374,1543 1133,1543 1133,477 424,1543 211,1543 211,0 452,0 452,1070 1160,0 1374,0 Z"
   id="glyph1691" />
   <glyph
   unicode="M"
   horiz-adv-x="1377"
   d="M 1546,0 L 1546,1543 1320,1543 884,570 437,1543 211,1543 211,0 452,0 452,956 787,229 975,229 1305,954 1305,0 1546,0 Z"
   id="glyph1693" />
   <glyph
   unicode="E"
   horiz-adv-x="1033"
   d="M 1201,0 L 1201,225 452,225 452,666 1091,666 1091,890 452,890 452,1319 1201,1319 1201,1543 211,1543 211,0 1201,0 Z"
   id="glyph1695" />
   <glyph
   unicode=")"
   horiz-adv-x="398"
   d="M 505,237 L 505,1306 C 505,1401 489,1480 459,1538 432,1583 380,1646 275,1754 L 109,1589 C 199,1499 232,1459 244,1437 260,1403 268,1360 268,1294 L 268,250 C 268,184 260,138 244,107 232,83 200,45 109,-45 L 274,-210 C 379,-105 432,-41 459,6 489,61 505,143 505,237 Z"
   id="glyph1697" />
   <glyph
   unicode="("
   horiz-adv-x="398"
   d="M 583,-49 C 494,37 462,76 450,103 430,141 421,186 421,250 L 421,1294 C 421,1356 430,1401 449,1441 462,1465 494,1505 582,1593 L 422,1754 C 314,1646 261,1582 237,1538 205,1479 188,1399 188,1306 L 188,237 C 188,143 205,62 237,6 261,-40 314,-105 422,-210 L 583,-49 Z"
   id="glyph1699" />
  </font>
</defs>
</svg>
