<svg xmlns="http://www.w3.org/2000/svg">
<defs>
<font
   horiz-adv-x="2048"
   id="EmbeddedFont_1">
   <font-face
   id="font-face10"
   descent="476"
   ascent="1561"
   font-style="normal"
   font-weight="normal"
   units-per-em="2048"
   font-family="DINOT-Regular embedded" />
   <missing-glyph
   id="missing-glyph12"
   d="M 0,0 L 2047,0 2047,2047 0,2047 0,0 Z"
   horiz-adv-x="2048" />
   <glyph
   id="glyph14"
   d="M 956,465 L 276,465 C 276,355 302,269 353,208 404,147 478,117 573,117 631,117 679,126 718,144 757,161 797,191 838,232 L 938,144 C 883,89 829,49 774,25 720,0 651,-12 569,-12 431,-12 324,31 246,116 168,201 129,331 129,504 129,666 166,793 240,884 313,975 414,1020 543,1020 672,1020 774,976 847,889 920,802 956,683 956,533 L 956,465 Z M 809,576 C 805,647 795,703 778,744 759,790 728,827 686,854 644,881 596,895 543,895 489,895 442,881 399,854 357,827 326,790 307,744 291,703 281,647 276,576 L 809,576 Z M 805,1531 L 584,1217 449,1217 629,1531 805,1531 Z"
   horiz-adv-x="822"
   unicode="é" />
   <glyph
   id="glyph16"
   d="M 893,1008 L 522,0 391,0 23,1008 182,1008 457,199 733,1008 893,1008 Z"
   horiz-adv-x="901"
   unicode="v" />
   <glyph
   id="glyph18"
   d="M 967,0 L 821,0 821,113 C 749,30 654,-12 537,-12 426,-12 339,19 276,82 208,149 174,243 174,365 L 174,1008 322,1008 322,387 C 322,300 343,233 386,188 429,142 489,119 567,119 645,119 707,142 752,189 797,235 819,301 819,387 L 819,1008 967,1008 967,0 Z"
   horiz-adv-x="795"
   unicode="u" />
   <glyph
   id="glyph20"
   d="M 571,0 L 467,0 C 384,0 320,25 275,76 231,126 209,191 209,270 L 209,889 82,889 82,1002 209,1002 209,1317 356,1317 356,1002 571,1002 571,889 356,889 356,274 C 356,176 402,127 494,127 L 571,127 571,0 Z"
   horiz-adv-x="478"
   unicode="t" />
   <glyph
   id="glyph22"
   d="M 911,295 C 911,200 874,125 800,70 725,15 626,-12 502,-12 327,-12 189,36 88,133 L 186,232 C 260,154 365,115 500,115 584,115 650,130 697,160 744,190 768,234 768,293 768,382 712,431 600,441 L 434,455 C 233,471 133,561 133,725 133,815 168,887 237,940 306,993 395,1020 504,1020 657,1020 778,984 866,911 L 770,815 C 700,868 611,895 502,895 429,895 374,880 335,851 296,822 276,781 276,729 276,640 335,591 453,582 L 614,567 C 710,559 783,534 835,492 886,449 911,384 911,295 Z"
   horiz-adv-x="848"
   unicode="s" />
   <glyph
   id="glyph24"
   d="M 856,926 L 748,815 C 720,842 694,862 669,873 643,883 612,889 573,889 501,889 443,863 398,812 354,761 332,696 332,619 L 332,0 184,0 184,1008 332,1008 332,885 C 359,927 398,960 450,984 501,1008 556,1020 614,1020 713,1020 793,989 856,926 Z"
   horiz-adv-x="689"
   unicode="r" />
   <glyph
   id="glyph26"
   d="M 862,932 C 944,850 985,707 985,504 985,301 944,158 862,76 804,17 722,-12 616,-12 495,-12 400,32 332,119 L 332,-451 184,-451 184,1008 332,1008 332,889 C 399,976 494,1020 616,1020 722,1020 804,991 862,932 Z M 828,359 C 835,400 838,448 838,504 838,560 835,608 828,649 822,690 811,730 795,769 778,808 752,838 717,858 681,879 638,889 586,889 534,889 490,879 455,858 419,838 393,808 376,769 359,730 347,690 341,649 335,608 332,560 332,504 332,448 335,400 341,359 347,318 359,278 376,239 393,200 419,170 455,150 490,129 534,119 586,119 638,119 681,129 717,150 752,170 778,200 795,239 811,278 822,318 828,359 Z"
   horiz-adv-x="795"
   unicode="p" />
   <glyph
   id="glyph28"
   d="M 831,905 C 913,822 954,688 954,504 954,320 913,186 831,103 755,26 659,-12 543,-12 427,-12 330,26 254,103 172,186 131,320 131,504 131,688 172,822 254,905 330,982 427,1020 543,1020 659,1020 755,982 831,905 Z M 727,193 C 780,246 807,350 807,504 807,658 780,762 727,815 678,864 616,889 543,889 470,889 410,864 360,815 306,761 279,657 279,504 279,351 306,247 360,193 410,144 470,119 543,119 616,119 678,144 727,193 Z"
   horiz-adv-x="822"
   unicode="o" />
   <glyph
   id="glyph30"
   d="M 977,0 L 829,0 829,621 C 829,708 808,775 764,820 720,866 659,889 582,889 504,889 443,866 398,819 354,773 332,707 332,621 L 332,0 184,0 184,1008 332,1008 332,897 C 403,979 497,1020 614,1020 724,1020 810,989 872,926 942,858 977,764 977,645 L 977,0 Z"
   horiz-adv-x="795"
   unicode="n" />
   <glyph
   id="glyph32"
   d="M 1626,0 L 1479,0 1479,621 C 1479,708 1457,775 1413,820 1369,866 1309,889 1231,889 1156,889 1095,866 1049,821 1002,776 979,715 979,637 L 979,0 831,0 831,621 C 831,708 810,775 766,820 722,866 662,889 584,889 506,889 444,866 399,819 354,773 332,707 332,621 L 332,0 184,0 184,1008 332,1008 332,897 C 403,979 498,1020 616,1020 760,1020 863,964 926,852 1005,964 1115,1020 1257,1020 1365,1020 1452,989 1518,926 1590,856 1626,763 1626,645 L 1626,0 Z"
   horiz-adv-x="1456"
   unicode="m" />
   <glyph
   id="glyph34"
   d="M 543,0 L 436,0 C 352,0 288,25 245,74 202,123 180,188 180,268 L 180,1459 328,1459 328,274 C 328,224 338,187 358,163 379,139 414,127 463,127 L 543,127 543,0 Z"
   horiz-adv-x="372"
   unicode="l" />
   <glyph
   id="glyph36"
   d="M 332,0 L 184,0 184,1008 332,1008 332,0 Z M 342,1294 L 176,1294 176,1460 342,1460 342,1294 Z"
   horiz-adv-x="160"
   unicode="i" />
   <glyph
   id="glyph38"
   d="M 956,465 L 276,465 C 276,355 302,269 353,208 404,147 478,117 573,117 631,117 679,126 718,144 757,161 797,191 838,232 L 938,144 C 883,89 829,49 774,25 720,0 651,-12 569,-12 431,-12 324,31 246,116 168,201 129,331 129,504 129,666 166,793 240,884 313,975 414,1020 543,1020 672,1020 774,976 847,889 920,802 956,683 956,533 L 956,465 Z M 809,576 C 805,647 795,703 778,744 759,790 728,827 686,854 644,881 596,895 543,895 489,895 442,881 399,854 357,827 326,790 307,744 291,703 281,647 276,576 L 809,576 Z"
   horiz-adv-x="822"
   unicode="e" />
   <glyph
   id="glyph40"
   d="M 932,0 L 786,0 786,121 C 718,32 623,-12 500,-12 395,-12 313,17 254,76 172,158 131,301 131,504 131,707 172,850 254,932 313,991 395,1020 500,1020 623,1020 717,977 784,891 L 784,1459 932,1459 932,0 Z M 775,359 C 781,400 784,448 784,504 784,560 781,608 775,649 769,690 758,730 741,769 725,808 699,838 664,858 628,879 584,889 532,889 481,889 437,879 401,858 366,838 340,808 323,769 305,730 294,690 288,649 282,608 279,560 279,504 279,448 282,400 288,359 294,318 305,278 323,239 340,200 366,170 401,150 437,129 481,119 532,119 584,119 628,129 664,150 699,170 725,200 741,239 758,278 769,318 775,359 Z"
   horiz-adv-x="795"
   unicode="d" />
   <glyph
   id="glyph42"
   d="M 907,138 C 855,82 805,43 756,21 707,-1 646,-12 575,-12 443,-12 336,32 253,121 170,210 129,338 129,504 129,671 170,798 253,887 336,976 443,1020 575,1020 646,1020 707,1009 756,987 805,965 855,927 907,871 L 807,776 C 769,819 733,848 698,864 664,881 623,889 575,889 473,889 395,851 342,774 298,713 276,623 276,504 276,385 298,295 342,234 395,157 473,119 575,119 623,119 664,128 698,145 733,162 769,191 807,234 L 907,138 Z"
   horiz-adv-x="795"
   unicode="c" />
   <glyph
   id="glyph44"
   d="M 903,0 L 756,0 756,97 C 715,56 673,27 631,12 588,-4 533,-12 465,-12 335,-12 240,19 180,80 130,131 104,199 104,285 104,375 135,446 196,498 256,550 342,576 453,576 L 756,576 756,672 C 756,747 735,803 694,839 653,875 588,893 498,893 433,893 383,885 345,867 308,850 274,821 244,778 L 143,871 C 187,926 236,965 291,987 345,1009 415,1020 500,1020 769,1020 903,908 903,684 L 903,0 Z M 756,357 L 756,465 473,465 C 323,465 248,406 248,287 248,172 325,115 479,115 583,115 658,138 705,183 739,215 756,273 756,357 Z"
   horiz-adv-x="795"
   unicode="a" />
   <glyph
   id="glyph46"
   d="M 1079,1342 C 1163,1264 1204,1160 1204,1030 1204,900 1163,796 1079,718 996,639 887,600 754,600 L 367,600 367,0 211,0 211,1458 754,1458 C 887,1458 996,1419 1079,1342 Z M 965,814 C 1021,864 1049,936 1049,1030 1049,1124 1021,1196 965,1245 909,1294 834,1319 739,1319 L 367,1319 367,739 739,739 C 834,739 909,764 965,814 Z"
   horiz-adv-x="980"
   unicode="P" />
   <glyph
   id="glyph48"
   d="M 1460,0 L 1305,0 1305,1108 905,230 772,230 367,1108 367,0 211,0 211,1459 367,1459 842,424 1305,1459 1460,1459 1460,0 Z"
   horiz-adv-x="1244"
   unicode="M" />
   <glyph
   id="glyph50"
   d="M 1212,403 C 1212,274 1173,174 1095,104 1016,35 911,0 778,0 L 211,0 211,1458 760,1458 C 888,1458 992,1423 1071,1354 1150,1284 1190,1189 1190,1069 1190,994 1170,928 1129,870 1089,813 1038,773 975,750 1047,724 1105,681 1148,620 1191,560 1212,488 1212,403 Z M 978,212 C 1030,260 1057,326 1057,408 1057,489 1030,554 978,602 925,650 854,674 764,674 L 367,674 367,139 764,139 C 854,139 925,164 978,212 Z M 954,878 C 1008,921 1034,984 1034,1067 1034,1150 1008,1213 955,1255 903,1298 834,1319 748,1319 L 367,1319 367,813 748,813 C 832,813 901,835 954,878 Z"
   horiz-adv-x="1006"
   unicode="B" />
   <glyph
   id="glyph52"
   d="M 1227,0 L 1061,0 944,330 307,330 190,0 25,0 561,1459 692,1459 1227,0 Z M 899,465 L 629,1235 354,465 899,465 Z"
   horiz-adv-x="1245"
   unicode="A" />
   <glyph
   id="glyph54"
   d="M 944,0 L 139,0 139,131 715,863 C 769,934 797,1005 797,1078 797,1157 774,1220 729,1268 684,1316 622,1340 543,1340 469,1340 408,1318 360,1274 313,1231 289,1164 289,1076 L 141,1076 C 141,1192 178,1287 252,1360 326,1434 423,1471 543,1471 663,1471 760,1435 834,1363 907,1292 944,1196 944,1078 944,1022 935,972 918,928 900,884 870,836 827,783 L 317,131 944,131 944,0 Z"
   horiz-adv-x="795"
   unicode="2" />
   <glyph
   id="glyph56"
   d="M 342,1110 L 180,1110 180,1458 342,1458 342,1110 Z"
   horiz-adv-x="160"
   unicode="'" />
   <glyph
   id="glyph58"
   horiz-adv-x="503"
   unicode=" " />
  </font>
 </defs>
 <defs
   id="defs78">
  <font
   horiz-adv-x="2048"
   id="EmbeddedFont_2">
   <font-face
   id="font-face63"
   descent="476"
   ascent="1561"
   font-style="normal"
   font-weight="bold"
   units-per-em="2048"
   font-family="DINOT-Regular embedded" />
   <missing-glyph
   id="missing-glyph65"
   d="M 0,0 L 2047,0 2047,2047 0,2047 0,0 Z"
   horiz-adv-x="2048" />
   <glyph
   id="glyph67"
   d="M 1344,0 L 1065,0 733,647 452,647 452,0 211,0 211,1543 813,1543 C 952,1543 1066,1503 1155,1422 1243,1341 1287,1232 1287,1095 1287,981 1256,886 1192,810 1128,734 1061,689 991,674 L 1344,0 Z M 981,927 C 1025,965 1047,1020 1047,1093 1047,1166 1024,1222 980,1261 936,1299 875,1319 798,1319 L 452,1319 452,870 798,870 C 876,870 937,889 981,927 Z"
   horiz-adv-x="1138"
   unicode="R" />
   <glyph
   id="glyph69"
   d="M 1546,0 L 1305,0 1305,954 975,230 787,230 452,957 452,0 211,0 211,1544 437,1544 884,570 1320,1544 1546,1544 1546,0 Z"
   horiz-adv-x="1350"
   unicode="M" />
   <glyph
   id="glyph71"
   d="M 1265,508 C 1234,329 1169,198 1070,114 970,30 850,-12 708,-12 549,-12 415,43 305,152 236,221 194,296 179,378 163,459 156,591 156,772 156,954 163,1085 179,1167 194,1248 236,1323 305,1392 415,1502 549,1556 708,1556 851,1556 972,1515 1070,1432 1168,1348 1233,1217 1265,1037 L 1020,1037 C 998,1140 960,1215 907,1262 854,1308 788,1332 708,1332 618,1332 544,1302 487,1242 449,1203 425,1154 413,1096 402,1037 397,929 397,772 397,615 402,507 413,449 425,390 449,341 487,302 544,242 618,213 708,213 788,213 855,236 909,283 964,329 1002,404 1024,508 L 1265,508 Z"
   horiz-adv-x="1112"
   unicode="C" />
   <glyph
   id="glyph73"
   d="M 505,237 C 505,140 490,63 459,6 434,-40 372,-112 274,-210 L 109,-45 C 188,33 233,84 244,107 260,139 268,187 268,250 L 268,1294 C 268,1357 260,1405 244,1437 233,1460 188,1511 109,1589 L 274,1754 C 372,1656 434,1584 459,1538 490,1481 505,1404 505,1306 L 505,237 Z"
   horiz-adv-x="398"
   unicode=")" />
   <glyph
   id="glyph75"
   d="M 582,-50 L 422,-210 C 323,-112 262,-40 237,6 205,64 188,141 188,237 L 188,1306 C 188,1402 205,1480 237,1538 262,1584 323,1656 422,1754 L 582,1593 C 507,1518 462,1467 449,1441 431,1403 421,1354 421,1294 L 421,250 C 421,189 431,140 449,103 462,77 507,26 582,-50 Z"
   horiz-adv-x="398"
   unicode="(" />
  </font>
</defs>
</svg>
